Doctor.Who.2005.S10E10.FASTSUB.VOSTFR.720p.HDTV.x264-ARK01 URL Raccourcie

Doctor Who S10E10 VOSTFR 720p





Origine de la série : Britannique
Acteurs : Peter Capaldi, Pearl Mackie
Genre : Aventure, Science fiction
Note : 4.0
Fiche allociné : Doctor Who



Extraterrestre de 2000 ans, le Docteur est un aventurier qui voyage à travers le temps et l'espace à l'aide de son vaisseau, le TARDIS (Time And Relative Dimension In Space), qui, pour mieux s'adapter à l'environnement, a l'apparence d'une cabine téléphonique. Le Docteur voyage en compagnie d'une jeune fille. Ensemble, ils font de nombreuses rencontres sur les diverses planètes qu'ils explorent...



Qualité : HDTV 720p
Format : MKV
Langue :
Sous-titres :
Codec vidéo : x264
Codec audio : AC3 5.1

.:: Release ::.
Doctor.Who.2005.S10E10.FASTSUB.VOSTFR.720p.HDTV.x264-ARK01


Total du post : 778 Mo


↓↓↓ Doctor.Who.2005.S10E10.FASTSUB.VOSTFR.720p.HDTV.x264-ARK01 ↓↓↓
 
Seeders 303 Leechers 16 Téléchargements 423
 
Télécharger Dire merci! Signaler
Voir la liste des membres qui vous remercient
↑↑↑ Doctor.Who.2005.S10E10.FASTSUB.VOSTFR.720p.HDTV.x264-ARK01 ↑↑↑

Informations

Nom Doctor.Who.2005.S10E10.FASTSUB.VOSTFR.720p.HDTV.x264-ARK01
Torrent Doctor.Who.2005.S10E10.FASTSUB.VOSTFR.720p.HDTV.x264-ARK01.mkv.torrent
Catégorie Série TV
Taille totale 778.27 MB
Info Hash a6eba237013a7eb6a6b612a4a2fe72e3ee83a294
Uploadé par Arkhos01
Uploadé le 2017-06-18 03:57:55 (+00:00)
Visites 614
évaluation 5/5 (5 votes)

Liste des Fichiers

Path Size
Doctor.Who.2005.S10E10.FASTSUB.VOSTFR.720p.HDTV.x264-ARK01.mkv 778.27 MB

Voir le NFO

General
Complete name                            : Doctor.Who.2005.S10E10.FASTSUB.VOSTFR.720p.HDTV.x264-ARK01.mkv
Format                                   : Matroska
Format version                           : Version 4 / Version 2
File size                                : 778 MiB
Duration                                 : 41mn 48s
Overall bit rate                         : 2 603 Kbps
Encoded date                             : UTC 2017-06-18 03:53:25
Writing application                      : mkvmerge v8.3.0 ('Over the Horizon') 64bit
Writing library                          : libebml v1.3.1 + libmatroska v1.4.2

Video
ID                                       : 1
Format                                   : AVC
Format/Info                              : Advanced Video Codec
Format profile                           : [email protected]
Format settings, CABAC                   : Yes
Format settings, ReFrames                : 5 frames
Codec ID                                 : V_MPEG4/ISO/AVC
Duration                                 : 41mn 48s
Bit rate                                 : 2 167 Kbps
Width                                    : 1 280 pixels
Height                                   : 720 pixels
Display aspect ratio                     : 16:9
Frame rate mode                          : Constant
Frame rate                               : 25.000 fps
Color space                              : YUV
Chroma subsampling                       : 4:2:0
Bit depth                                : 8 bits
Scan type                                : Progressive
Bits/(Pixel*Frame)                       : 0.094
Stream size                              : 648 MiB (83%)
Writing library                          : x264 core 150 r2833 df79067
Language                                 : English
Default                                  : Yes
Forced                                   : No
Color range                              : Limited
Matrix coefficients                      : BT.709

Audio
ID                                       : 2
Format                                   : AC-3
Format/Info                              : Audio Coding 3
Mode extension                           : CM (complete main)
Format settings, Endianness              : Big
Codec ID                                 : A_AC3
Duration                                 : 41mn 48s
Bit rate mode                            : Constant
Bit rate                                 : 384 Kbps
Channel(s)                               : 6 channels
Channel positions                        : Front: L C R, Side: L R, LFE
Sampling rate                            : 48.0 KHz
Compression mode                         : Lossy
Stream size                              : 115 MiB (15%)
Language                                 : English
Default                                  : Yes
Forced                                   : No

Text #1
ID                                       : 3
Format                                   : UTF-8
Codec ID                                 : S_TEXT/UTF8
Codec ID/Info                            : UTF-8 Plain Text
Language                                 : French
Default                                  : Yes
Forced                                   : No

Text #2
ID                                       : 4
Format                                   : UTF-8
Codec ID                                 : S_TEXT/UTF8
Codec ID/Info                            : UTF-8 Plain Text
Language                                 : English
Default                                  : No
Forced                                   : No

Sources : FoV - Addic7ed

Ajouter un commentaire

Loading...